Classic Bangla Video Amar Buker Modhey Khane By Nancy Arfin Rumi *2011* Full HD Video Music Download





http://www.multiupload.com/Q20TOWTCR9 
 



Prem Ki Bujhini & Paglu (2011) Bengali Movie Full HD VideoMusi Download  link..







http://www.multiupload.com/MIS1AYFYR2

Watch Video
http://www.zshare.net/video/8964812801fb5d44/




Tomari Porosh & Porshi & Arfin Rumey *2011* Full HD Video Musi Download Link  



 


http://www.multiupload.com/U7XO2BTW9X
Watch Video

http://www.zshare.net/video/892976921d472b65/




Paglu (2011) Bengali Movie Title Track HD Video Songs Download Links 






 


Full HD Video link
http://www.multiupload.com/P2LJ6FCKD8






 Tumi Ele Jibone - Mon Bole Priya Priya (2011) Full HD Video Song Download Links

 

http://www.multiupload.com/OG1M1CSNKN

 

LAL EKLA EKSHO (Part Two) *2011* Full HD Video Songs Download Links

http://www.multiupload.com/JEFPEYM0JC

 

Tumi Ashbe - Parabashi Project (2011) Official Music Video (2011) Downlod Link

 

 

Bit rate : 647 Kbps
Width : 640 pixels
Height : 360 pixels
Display aspect ratio : 16:9
Frame rate mode : Variable
Frame rate : 23.976 fps
Color space : YUV
Chroma subsampling : 4:2:0
Bit depth : 8 bits
Scan type : Progressive
Bits/(Pixel*Frame) : 0.117
Stream size : 30.1 MiB (96%)

Download Link

http://www.mediafire.com/?bedmy6vsmfe5m99

 

 

Nagordola (Rajotto)-Official Music Video (2011) Downlod Link

 

Download Link

http://www.mediafire.com/?gxrcigt38ebdij5

Luku Churi Premer Khela (2011) Bangla Youth Project Music Video Downlod Link

Duration : 3mn 36s
Bit rate : 630 Kbps
Width : 640 pixels
Height : 360 pixels
Display aspect ratio : 16:9
Frame rate mode : Constant
Frame rate : 29.970 fps
Color space : YUV
Chroma subsampling : 4:2:0
Bit depth : 8 bits
Scan type : Progressive
Bits/(Pixel*Frame) : 0.091
Stream size : 16.3 MiB (96%)


Download Link
http://www.mediafire.com/?emm49b7y56uc1en

 

 

ICC Cricket World Cup (2011) Video songs – Jole Utho Bangladesh Arfin Rumey Downlod

Duration : 3mn 59s
Bit rate : 690 Kbps
Width : 480 pixels

Height : 360 pixels
Display aspect ratio : 4:3
Frame rate mode : Variable

Frame rate : 25.000 fps
Color space : YUV

Chroma subsampling : 4:2:0

Download Link

http://www.mediafire.com/?yqw5mx7ltnqg84w


 

Anonymous

Anónimo

09 Aug 2011 - 04:12 pm

Anonymous

Anónimo

19 Jul 2011 - 12:16 pm

Anonymous

Dj Dipu

07 Jun 2011 - 04:22 am

arfin romey amer onek preo shelp.i loVe you Arfin romey.

Anonymous

Md Dipu

07 Jun 2011 - 04:20 am

fffffffffffffffffffffffffffffffffff

Agregar un comentario

Tu nombre

Tu dirección de correo (no se mostrará)

Mensaje *

Ingrese este código para prevenir el spam *

© 2014